Notice

The forum is in read only mode.

Support Forum

Welcome! Support Forums have been reactivated
Welcome the Technical Support section. Help us in assisting you by providing us with a concise and descriptive elaboration of your issues. Be specific and if possible, provide us with a step-by-step instruction in replicating your problem.

upload video - cron job is not working

9 years 3 days ago
Licenses:
JomSocial Expired

Hi,

Today I bought jomsocial 3.1.0.2 and disappointed - video uploading is not working - cron job given a message - below. I tried a few versions of Linux - the same - the video uploading is possible only jomsocial 2.8 and 3.0. The next version brings the same message:

XML Parsing Error: junk after document element
Location: http://192.168.1.19/nemigra/index.php?option=com_community&task=cron
Line Number 1, Column 43:

<pre>FFmpeg could not convert videos</pre><pre>/usr/bin/ffmpeg -y -i /var/www/nemigra/images/originalvideos/145/bFOUbWYqwzU.mp4 -vcodec libx264 -acodec aac -strict -2 -crf 23 -s 480x360 /var/www/nemigra/images/videos/145/gbFBkenV4Zl.mp4</pre><pre></pre><?xml version="1.0" encoding="UTF-8" ?><messages><message>Could not convert video</message><message>No temporary videos to delete.</message><message>No files to transfer.</message><message>No Videos to transfer.</message><message>No avatars or cover of users needed to be transferred</message><message>No avatars or cover of groups needed to be transferred</message><message>Removed Pending Invitation for Past Event</message></messages>


^

9 years 1 day ago
  • Dimas Tekad Santosa's Avatar
  • Dimas Tekad Santosa
  • Visitor
  • Thank you received: 0
Licenses:

Hi,

We have some uploading video issue since version 3.1 , and still investigate this.. anyway Can you try run this code in your server terminal please ?

/usr/bin/ffmpeg -y -i /var/www/nemigra/images/originalvideos/145/4Vbon4IgaYn.3gp -vcodec libx264 -acodec aac -strict -2 -crf 23 -s 480x360  /var/www/nemigra/images/videos/145/RYVwMLwsj1b.mp4

let me know what do you get with it?

9 years 1 day ago
Licenses:
JomSocial Expired

Hi,
ok:
ffmpeg version 0.8.9-6:0.8.9-0ubuntu0.13.04.1, Copyright (c) 2000-2013 the Libav developers
built on Nov 9 2013 19:09:48 with gcc 4.7.3
*** THIS PROGRAM IS DEPRECATED ***
This program is only provided for compatibility and will be removed in a future release. Please use avconv instead.
Input #0, mov,mp4,m4a,3gp,3g2,mj2, from '/var/www/nemigra/images/originalvideos/145/4Vbon4IgaYn.3gp':
Metadata:
major_brand : 3gp6
minor_version : 256
compatible_brands: isom3gp6
creation_time : 2013-11-23 13:58:13
Duration: 00:01:58.37, start: 0.000000, bitrate: 203 kb/s
Stream #0.0(und): Video: mpeg4 (Simple Profile), yuv420p, 320x240 [PAR 1:1 DAR 4:3], 169 kb/s, 25 fps, 25 tbr, 25 tbn, 25 tbc
Metadata:
creation_time : 2013-11-23 13:58:13
Stream #0.1(und): Audio: aac, 22050 Hz, mono, s16, 31 kb/s
Metadata:
creation_time : 2013-11-23 13:58:14
Unknown encoder 'libx264'

9 years 1 day ago
  • Dimas Tekad Santosa's Avatar
  • Dimas Tekad Santosa
  • Visitor
  • Thank you received: 0
Licenses:

Hi rigmantas,

If you dont mind, can you provide me the SSH account please?

thx

9 years 1 day ago
Licenses:
JomSocial Expired

Hi,
Thank you, you pushed me in the right direction :).
I used next : apt-get install libavcodec-extra-53
And ffmpeg, cron job start working.
Next:
Pseudo Streaming not working: 200, stream not found...
Please help,
Riantas

9 years 17 hours ago
  • Dimas Tekad Santosa's Avatar
  • Dimas Tekad Santosa
  • Visitor
  • Thank you received: 0
Licenses:

Hi,

Can you provide me FTP access, please? I will check this issue directly.

thank you

8 years 11 months ago
Licenses:
JomSocial Expired

Hi,
Ftp access i create in first message.
Best regards,
Rimantas

8 years 11 months ago
  • Dimas Tekad Santosa's Avatar
  • Dimas Tekad Santosa
  • Visitor
  • Thank you received: 0
Licenses:

ehm..now I cant access nemigra.lt/index.php?option=com_community can you verify it?

8 years 11 months ago
Licenses:
JomSocial Expired

I test it in my local server: 78.63.134.150/pydio
Rimantas

8 years 11 months ago
  • Dimas Tekad Santosa's Avatar
  • Dimas Tekad Santosa
  • Visitor
  • Thank you received: 0
Licenses:

Ehm, I cant replicate this issue if you test on your local server, I also go to 78.63.134.150/pydio seems that is FTP site, not Joomla site.

8 years 11 months ago
Licenses:
JomSocial Expired

I'm puzzled, i was writing about that in the first message: 78.63.134.150/nemigra.

8 years 11 months ago
Licenses:
JomSocial Expired

I edited your first post - and I pointed ftp and web page addresses. Please find links login user names and passwords.
Best regards,
Rimantas

8 years 11 months ago
  • Dimas Tekad Santosa's Avatar
  • Dimas Tekad Santosa
  • Visitor
  • Thank you received: 0
Licenses:

Hi,

Please check again, I just fix this.. this issue cuased by 'Pseudo Streaming' configuration, you need disabled it for fixing this.

8 years 11 months ago
Licenses:
JomSocial Expired

I can not understand you - if the function does not work - it needs to be off? If such resolutions - I want to turn off Jomsocial recover the money and look for better alternatives.
Best regards,
Rimantas

Moderators: Piotr Garasiński
Powered by Kunena Forum

Join 180,000 websites creating Amazing communities

JomSocial is the most complete, easy-to-use addon that turns Joomla CMS into a
full -fledged, social networking site

TRY NOW BUY NOW